osu file format v14

[General]
AudioFilename: rise to the challenge - AsianDubF.mp3
AudioLeadIn: 1500
PreviewTime: -1
Countdown: 0
SampleSet: None
StackLeniency: 0.7
Mode: 0
LetterboxInBreaks: 1
WidescreenStoryboard: 0

[Editor]
Bookmarks: 22248,23181,25713,26779,28823,30112,31578,32688,33799,36776,38242,39619,42551,45261,48860,51792,54014,90711,92222,114969,137894,172459,195562,219464,227105
DistanceSpacing: 0.5
BeatDivisor: 8
GridSize: 4
TimelineZoom: 1

[Metadata]
Title:Rise to the challenge
TitleUnicode:Rise to the challenge
Artist:asi
ArtistUnicode:asi
Creator:wackosaru
Version:Normal
Source:
Tags:
BeatmapID:786562
BeatmapSetID:357591

[Difficulty]
HPDrainRate:4
CircleSize:4
OverallDifficulty:5
ApproachRate:5
SliderMultiplier:1.4
SliderTickRate:1

[Events]
//Background and Video events
//Break Periods
//Storyboard Layer 0 (Background)
//Storyboard Layer 1 (Fail)
//Storyboard Layer 2 (Pass)
//Storyboard Layer 3 (Foreground)
//Storyboard Sound Samples

[TimingPoints]
9319,355.424195174008,4,2,0,100,1,0

[HitObjects]
124,220,23181,5,0,0:0:0:0:
168,180,23358,2,0,B|181:160|210:159|227:180|225:202|213:215,1,87.5,,,0:0:0:0:
164,176,23714,2,0,L|164:103,1,70,,,0:0:0:0:
244,108,24247,1,0,0:0:0:0:
244,108,24425,2,0,L|320:108,1,70,,,0:0:0:0:
424,72,24780,1,0,0:0:0:0:
348,188,25136,2,0,L|348:260|348:260,2,70,,,0:0:0:0:
348,188,26024,5,0,0:0:0:0:
348,188,26202,2,0,L|260:188,1,87.5,,,0:0:0:0:
260,188,26557,2,0,B|288:158|286:111|254:82|218:80,1,140,,,0:0:0:0:
256,252,27135,1,0,0:0:0:0:
256,252,27268,2,0,L|376:252,1,105,,,0:0:0:0:
156,296,27846,1,0,0:0:0:0:
156,296,28023,2,0,L|156:156,2,140,,,0:0:0:0:
200,292,28912,6,0,L|272:292,1,70,,,0:0:0:0:
272,240,29267,1,0,0:0:0:0:
268,180,29445,2,0,L|268:64,2,105,,,0:0:0:0:
216,180,30200,1,0,0:0:0:0:
188,132,30423,1,0,0:0:0:0:
216,180,30689,1,0,0:0:0:0:
188,132,30911,1,0,0:0:0:0:
440,98,31800,5,0,0:0:0:0:
464,148,31978,1,0,0:0:0:0:
460,204,32155,1,0,0:0:0:0:
440,256,32333,2,0,B|411:227|373:213|336:212,1,105,,,0:0:0:0:
280,224,32866,1,0,0:0:0:0:
228,220,33044,1,0,0:0:0:0:
208,272,33222,1,0,0:0:0:0:
180,316,33399,1,0,0:0:0:0:
128,312,33577,1,0,0:0:0:0:
100,264,33755,1,0,0:0:0:0:
152,264,34110,5,0,0:0:0:0:
152,192,34465,2,0,L|152:112,3,70,,,0:0:0:0:
316,192,35354,2,0,L|316:112,2,70,,,0:0:0:0:
316,192,36109,2,0,B|353:188|387:215|392:254|377:283,1,122.5,,,0:0:0:0:
356,344,36598,1,0,0:0:0:0:
64,316,37176,5,0,0:0:0:0:
64,316,37353,2,0,L|160:216,1,122.5,,,0:0:0:0:
216,140,38064,1,0,0:0:0:0:
396,144,38597,1,0,0:0:0:0:
328,172,38775,2,0,L|396:224,1,70,,,0:0:0:0:
316,244,39130,1,0,0:0:0:0:
272,296,39530,1,0,0:0:0:0:
152,144,40419,5,0,0:0:0:0:
188,100,40597,1,0,0:0:0:0:
232,64,40774,1,0,0:0:0:0:
288,60,40952,2,0,B|296:88|328:80|332:112,1,70,,,0:0:0:0:
328,168,41307,1,0,0:0:0:0:
304,216,41485,1,0,0:0:0:0:
264,256,41618,2,0,B|245:282|201:278|185:238|204:212,2,105,,,0:0:0:0:
316,276,42329,1,0,0:0:0:0:
72,44,42951,6,0,L|72:128,1,70,,,0:0:0:0:
136,116,43484,2,0,L|136:40|136:40,1,70,,,0:0:0:0:
204,44,43840,1,0,0:0:0:0:
392,48,44195,1,0,0:0:0:0:
272,152,44506,1,0,0:0:0:0:
392,192,44684,1,0,0:0:0:0:
272,260,44906,1,0,0:0:0:0:
388,304,45084,1,0,0:0:0:0:
76,192,45395,5,0,0:0:0:0:
128,228,45572,1,0,0:0:0:0:
72,256,45750,1,0,0:0:0:0:
200,336,46194,2,0,B|185:292|217:243|272:241|303:271,1,140,,,0:0:0:0:
284,332,46728,1,0,0:0:0:0:
332,292,46905,1,0,0:0:0:0:
384,256,47083,1,0,0:0:0:0:
340,212,47261,1,0,0:0:0:0:
376,160,47438,1,0,0:0:0:0:
328,120,47616,1,0,0:0:0:0:
296,180,47794,2,0,L|200:180,2,70,,,0:0:0:0:
296,180,48505,6,0,L|296:80,1,70,,,0:0:0:0:
232,148,49038,1,0,0:0:0:0:
184,108,49216,1,0,0:0:0:0:
144,156,49393,1,0,0:0:0:0:
192,196,49571,1,0,0:0:0:0:
156,252,49749,1,0,0:0:0:0:
108,208,49926,1,0,0:0:0:0:
60,252,50104,1,0,0:0:0:0:
108,296,50282,1,0,0:0:0:0:
212,316,50548,1,0,0:0:0:0:
304,232,50815,1,0,0:0:0:0:
260,276,50993,1,0,0:0:0:0:
216,240,51348,6,0,L|144:196,1,70,,,0:0:0:0:
152,64,51881,1,0,0:0:0:0:
380,80,52237,1,0,0:0:0:0:
320,104,52414,2,0,L|240:132,1,70,,,0:0:0:0:
200,156,52770,1,0,0:0:0:0:
200,156,52948,1,0,0:0:0:0:
216,216,53125,2,0,L|120:248,1,70,,,0:0:0:0:
204,288,53481,2,0,L|288:256,2,70,,,0:0:0:0:
204,288,54058,5,0,0:0:0:0:
252,248,54236,1,0,0:0:0:0:
256,184,54414,1,0,0:0:0:0:
264,120,54591,2,0,B|267:165|310:198|359:187|383:154,1,157.5,,,0:0:0:0:
348,84,55302,2,0,B|319:136|317:194|336:244,1,157.5,,,0:0:0:0:
253,227,55880,1,0,0:0:0:0:
256,192,56058,12,0,57479,0:0:0:0:
